灰猎犬号4K Greyhound.2020.2160p.ATVP.WEB-DL.x265.10bit.HDR.DDP5.1.Atmos电影下载

怒海战舰(台) / 雷霆战舰:猎犬号(港) / 灰狗/灰猎犬号4K Greyhound.2020.2160p.ATVP.WEB-DL.x265.10bit.HDR.DDP5.1.Atmos电影信息

片  名:灰猎犬号4K

电影分类:战争 剧情 

国  家:美国 

年  代:2020年

分 辨 率:4K(3840x2160)

电影格式:MKV|REMUX 

画质标准:HDR 

音质编码:Dolby Digital Plus Audio 

电影声道:5.1声道 

帧数/FPS:23.976 FPS

电影语言:中文简体 中文繁体 英文原版 

资源大小:15.81 GB

导  演:亚伦·施耐德

豆瓣评分:9.6 分

4K下载地址 :https://www.edu-hb.com/down/924-1-1.html

剧情简介: 影片讲述二战初期,由37支盟军船只组成的护航舰队在欧内斯特·克劳斯(汤姆·汉克斯饰)舰长率领的一艘美国驱逐舰指挥下,穿越险恶的北大西洋,同时还要与德国U型潜艇狼群的周旋。

Video

ID : 1

Format : HEVC

Format/Info : High Efficiency Video Coding

Format profile : Main 10@L5@High

HDR format : SMPTE ST 2086, HDR10 compatible

Codec ID : V_MPEGH/ISO/HEVC

Duration : 1 h 31 min

Bit rate : 23.9 Mb/s

Width : 3 840 pixels

Height : 1 604 pixels

Display aspect ratio : 2.40:1

Frame rate mode : Constant

Frame rate : 23.976 (23976/1000) FPS

Color space : YUV

Chroma subsampling : 4:2:0 (Type 2)

Bit depth : 10 bits

Bits/(Pixel*Frame) : 0.162

Stream size : 15.3 GiB (97%)

Language : English

Default : Yes

Forced : No

Color range : Limited

Color primaries : BT.2020

Transfer characteristics : PQ

Matrix coefficients : BT.2020 non-constant

Mastering display color primaries : Display P3

Mastering display luminance : min: 0.0001 cd/m2, max: 1000 cd/m2

Maximum Content Light Level : 1044 cd/m2

Maximum Frame-Average Light Level : 217 cd/m2


Audio

ID : 2

Format : E-AC-3 JOC

Format/Info : Enhanced AC-3 with Joint Object Coding

Commercial name : Dolby Digital Plus with Dolby Atmos

Codec ID : A_EAC3

Duration : 1 h 31 min

Bit rate mode : Constant

Bit rate : 768 kb/s

Channel(s) : 6 channels

Channel layout : L R C LFE Ls Rs

Sampling rate : 48.0 kHz

Frame rate : 31.250 FPS (1536 SPF)

Compression mode : Lossy

Stream size : 504 MiB (3%)

Language : English

Service kind : Complete Main

Default : Yes

Forced : No

Complexity index : 16

Number of dynamic objects : 15

Bed channel count : 1 channel

Bed channel configuration : LFE


Text #1

ID : 3

Format : UTF-8

Codec ID : S_TEXT/UTF8

Codec ID/Info : UTF-8 Plain Text

Duration : 1 h 30 min

Bit rate : 103 b/s

Count of elements : 1092

Stream size : 68.7 KiB (0%)

Title : العربية

Language : Arabic

Default : No

Forced : No


Text #2

ID : 4

Format : UTF-8

Codec ID : S_TEXT/UTF8

Codec ID/Info : UTF-8 Plain Text

Duration : 1 h 30 min

Bit rate : 83 b/s

Count of elements : 1001

Stream size : 55.4 KiB (0%)

Title : български

Language : Bulgarian

Default : No

Forced : No


Text #3

ID : 5

Format : UTF-8

Codec ID : S_TEXT/UTF8

Codec ID/Info : UTF-8 Plain Text

Duration : 1 h 30 min

Bit rate : 55 b/s

Count of elements : 1079

Stream size : 36.8 KiB (0%)

Title : Čeština

Language : Czech

Default : No

Forced : No


Text #4

ID : 6

Format : UTF-8

Codec ID : S_TEXT/UTF8

Codec ID/Info : UTF-8 Plain Text

Duration : 1 h 30 min

Bit rate : 50 b/s

Count of elements : 1078

Stream size : 33.7 KiB (0%)

Title : dansk

Language : Danish

Default : No

Forced : No


Text #5

ID : 7

Format : UTF-8

Codec ID : S_TEXT/UTF8

Codec ID/Info : UTF-8 Plain Text

Duration : 1 h 30 min

Bit rate : 62 b/s

Count of elements : 985

Stream size : 41.7 KiB (0%)

Title : Deutsch

Language : German

Default : No

Forced : No


Text #6

ID : 8

Format : UTF-8

Codec ID : S_TEXT/UTF8

Codec ID/Info : UTF-8 Plain Text

Duration : 1 h 30 min

Bit rate : 103 b/s

Count of elements : 1090

Stream size : 69.0 KiB (0%)

Title : Ελληνικά

Language : Greek

Default : No

Forced : No


Text #38

ID : 40

Format : UTF-8

Codec ID : S_TEXT/UTF8

Codec ID/Info : UTF-8 Plain Text

Duration : 1 h 30 min

Bit rate : 57 b/s

Count of elements : 1095

Stream size : 38.2 KiB (0%)

Title : 廣東話

Language : Chinese

Default : No

Forced : No


Text #39

ID : 41

Format : UTF-8

Codec ID : S_TEXT/UTF8

Codec ID/Info : UTF-8 Plain Text

Duration : 1 h 30 min

Bit rate : 56 b/s

Count of elements : 1095

Stream size : 37.6 KiB (0%)

Title : 中文(繁體)

Language : Chinese

Default : No

Forced : No


Text #40

ID : 42

Format : UTF-8

Codec ID : S_TEXT/UTF8

Codec ID/Info : UTF-8 Plain Text

Duration : 1 h 30 min

Bit rate : 53 b/s

Count of elements : 1092

Stream size : 35.7 KiB (0%)

Title : 中文(简体)

Language : Chinese

Default : No

Forced : No

4K下载地址 :https://www.edu-hb.com/down/924-1-1.html

 分享

本文由网络整理 © 版权归原作者所有

共  条评论

评论

  •  主题颜色

    • 橘色
    • 绿色
    • 蓝色
    • 粉色
    • 红色
    • 金色
  • 扫码用手机访问

本站服务器未保存任何影视、音乐、游戏等资源或文件,且本站并不属于bt的提供者、制作者、所有者,因此本站不承担任何法律责任!

申明:本站属于互联网自由分享搜索引擎,若本站收录内容侵犯了您的权益,请附说明联系邮箱,本站将第一时间处理。

© 2020 www.edu-hb.com  E-Mail:(#=@)  最新 RSS订阅 sitemap

观看记录